8 melodii si numai 8

CD, vinil, concerte
Post Reply
User avatar
LEKTOR
Posts: 1774
Joined: 05 Oct 2008, 16:08
Location: Audiofilsburg

8 melodii si numai 8

Post by LEKTOR »

Sa zicem ca avem 500 cduri originale - toate genurile de muzica - rock,disco,hard,jazz,clasica,reggae,blues,electronica,etc - miine avem ocazia sa audiem/comparam/testam cele mai bune 10 sisteme audio din lume la ora actuala - componente noi si vintage - dealerul iti acorda 30 minute de ascultat pt fiecare sistem - care ar fi cele 8 melodii/pasaje muzicale pe care le-am folosi pt auditie/test ? Eventual precizari de genul

Artist x - melodia/track y-(in special pasajul de la minutul z) - casa producatoare a cdului - si motivul alegerii

Hai sa incepem.
... living a vi(ntage)king analog lifestyle in a digital world ...

User avatar
momolo
Moderator
Posts: 13970
Joined: 02 Oct 2008, 10:11
Location: Bucuresti

Re: 8 melodii si numai 8

Post by momolo »

dealerul iti acorda 30 minute de ascultat pt fiecare sistem
- e mult, m-as plictisi. Imi ajung 10 minute desi cam in primele secunde se pot sorta instant majoritatea. Probabil raman vreo doua care ar fi bine de analizat minim cateva zile. De obicei se ajunge in final la doua, trei bune din care nu sti ce sa alegi. :)

Nu as alege decat ceva piese clasica si jazz. Nu-mi vin acum in cap insa stiu discurile din vedere. In principal de la XRCD dar si unele discuri japoneze pe care din pacate nu le pot citi (nu au scris latin...)
prostia, ignoranta, lipsa educatiei elementare sunt cele mai letale arme de distrugere in masa.

User avatar
LEKTOR
Posts: 1774
Joined: 05 Oct 2008, 16:08
Location: Audiofilsburg

Re: 8 melodii si numai 8

Post by LEKTOR »

Pai vino cu ceva titluri si autori !
... living a vi(ntage)king analog lifestyle in a digital world ...

User avatar
HighEndFan
Posts: 137
Joined: 03 Oct 2008, 15:43

Re: 8 melodii si numai 8

Post by HighEndFan »

De exemplu discul demo de la Accuphase mi se pare destul de bun.
Nu stiu exact cine canta, eu am doar o copie.
Discul meu de test pentru HiFi Arena 2008 arata asa:
FILE "D:\EAC FOLDER\Lila Downs-Tree of Life\03 - Arenita Azul.wav" WAVE
TRACK 01 AUDIO
PREGAP 00:02:00
INDEX 01 00:00:00
FILE "D:\EAC FOLDER\APOCALYPTICA-Amplified\(03) Nothing Else Matters - Apocalyptica.wav" WAVE
TRACK 02 AUDIO
PREGAP 00:02:00
INDEX 01 00:00:00
FILE "D:\EAC FOLDER\Gene Ammons - Boss Tenor\New Folder\(03) My Romance - Gene Ammons.wav" WAVE
TRACK 03 AUDIO
PREGAP 00:02:00
INDEX 01 00:00:00
FILE "D:\EAC FOLDER\USHER-Test Disc\(03) O Holy Night-Gart Karr .wav" WAVE
TRACK 04 AUDIO
PREGAP 00:02:00
INDEX 01 00:00:00
FILE "D:\EAC FOLDER\Boston Pops Fiedler - Offenbach - Gaîté Parisienne - XRCD2\New Folder\(04) Länder- Allegro - Boston Pops Fiedler.wav" WAVE
TRACK 05 AUDIO
PREGAP 00:02:00
INDEX 01 00:00:00
FILE "D:\EAC FOLDER\Boston Pops Fiedler - Offenbach - Gaîté Parisienne - XRCD2\New Folder\(02) Allegro brillante - Boston Pops Fiedler.wav" WAVE
TRACK 06 AUDIO
PREGAP 00:02:00
INDEX 01 00:00:00
FILE "D:\EAC FOLDER\Boston Pops Fiedler - Offenbach - Gaîté Parisienne - XRCD2\New Folder\(03) Polka - Boston Pops Fiedler.wav" WAVE
TRACK 07 AUDIO
PREGAP 00:02:00
INDEX 01 00:00:00
FILE "D:\EAC FOLDER\ACCUPHASE Demo Disc\Track06.wav" WAVE
TRACK 09 AUDIO
PREGAP 00:02:00
INDEX 01 00:00:00
FILE "D:\EAC FOLDER\ACCUPHASE Demo Disc\Track08.wav" WAVE
TRACK 10 AUDIO
PREGAP 00:02:00
INDEX 01 00:00:00
FILE "D:\EAC FOLDER\ACCUPHASE Demo Disc\Track13.wav" WAVE
TRACK 11 AUDIO
PREGAP 00:02:00
INDEX 01 00:00:00
FILE "D:\EAC FOLDER\USHER-Test Disc\(15) The Beat Goes On-Patricia Barber - Unknown Artist.wav" WAVE
TRACK 12 AUDIO
PREGAP 00:02:00
INDEX 01 00:00:00
FILE "D:\EAC FOLDER\A GO GO-Scofield,Medeski,Martin &Wood\(01) A Go Go - John Scofield.wav" WAVE
TRACK 13 AUDIO
PREGAP 00:02:00
INDEX 01 00:00:00
FILE "D:\EAC FOLDER\A GO GO-Scofield,Medeski,Martin &Wood\(07) Green Tea - John Scofield.wav" WAVE
TRACK 14 AUDIO
PREGAP 00:02:00
INDEX 01 00:00:00
FILE "D:\EAC FOLDER\USHER-Test Disc\(04) Moonlight-TIMBRE .wav" WAVE
TRACK 15 AUDIO
PREGAP 00:02:00
INDEX 01 00:00:00
FILE "D:\EAC FOLDER\USHER-Test Disc\(02) Improvisation-Jim Keltner.wav" WAVE
TRACK 16 AUDIO
PREGAP 00:02:00
INDEX 01 00:00:00
FILE "D:\EAC FOLDER\Arena 2008 Test\(02) The Best is Yet to Come - Peggy Lee.wav" WAVE
TRACK 17 AUDIO
PREGAP 00:02:00
INDEX 01 00:00:00
FILE "D:\EAC FOLDER\ACCUPHASE Demo Disc\Track01.wav" WAVE
TRACK 18 AUDIO
PREGAP 00:02:00
INDEX 01 00:00:00
FILE "D:\EAC FOLDER\Arena 2008 Test\Only a Woman's Heart -Jette Torp -.wav" WAVE
TRACK 20 AUDIO
PREGAP 00:02:00
INDEX 01 00:00:00

Lista e luata din EAC.
Nu sunt 8 ci 18, dar o jumatate de ora imi ajunge cu prisosinta sa-mi dau seama daca sistemul "are potential" sau nu.
De fapt dupa primele acorduri ale catorva piese imi dadeam seama daca merita sa mai stau in incaperea respectiva .Ca fapt divers, cam o ora mi-a luat o auditie preliminara a tuturor sistemelor de la HIFI Arena. Ceea ce (unora le) spune multe.

User avatar
Idi Amin Dada
Posts: 9
Joined: 21 Sep 2009, 10:02

Re: 8 melodii si numai 8

Post by Idi Amin Dada »

Highendfan, ptr Gene Ammons, My Romance votez si eu...poate cea mai buna melodie la saxofon....si cand te gandesti ca a fost inregistrata prin 1962...

User avatar
Gabriel_Wo
Posts: 899
Joined: 14 Sep 2010, 19:56
Location: Iasi

Re: 8 melodii si numai 8

Post by Gabriel_Wo »

Albume inregistrate exceptional, numai bune pentru altoit si cumparat sisteme :?
In cazul lor nu conteaza piesa si minutul, pur si simplu o iei de la inceput si tot mergi..!

1. Klaus Schulze Cyborg 1973 2cd
2. Soft Machine Seven 1973 cd Japan Edition !
3. Emerson, Lake and Palmer Brain Sallad Surgery 1973
4. Trio Medieval ..Folk Songs, ECM New Series ...piese medievale populare norvegiene, in ansamblu apar numai 3 soliste si un percutionist !

http://www.allmusic.com/album/folk-songs-mw0000486164" onclick="window.open(this.href);return false;

5. Bruckner 9, Gunther Wand, NDR Symphony Orchestra, RCA ...Cea mai dinamica orchestratie pe care o cunosc, ce va pune in dificultate multe urechi !

http://www.amazon.com/Symphony-9-Anton- ... ner+wand+9" onclick="window.open(this.href);return false;

6. Rachel Podger Bach Sonatas & Partitas for Violin Solo vol. 2

http://www.channelclassics.com/j-s-bach ... iolin.html" onclick="window.open(this.href);return false;
si vol. 1
http://www.channelclassics.com/j-s-bach ... vol-1.html" onclick="window.open(this.href);return false;

7. Antonio Vivaldi: Le Quattro Stagioni cu G. Carmignola, Sonatori de la Gioiosa Marca, Divox

http://www.allmusic.com/album/antonio-v ... 15/credits" onclick="window.open(this.href);return false;

8. Bach Die Kunst der Fuge cu Musica Antiqua Koln, R. Goebel, Archiv Produktion seria Master

http://www.allmusic.com/album/bach-die- ... 0001395729" onclick="window.open(this.href);return false;

Succesuri :)
"Este intotdeauna de preferat compania oamenilor care cauta adevarul, fata de a celor care l-au gasit deja" Terry Pratchett

Post Reply